<?xml version="1.0" standalone="no"?>
<!DOCTYPE svg PUBLIC "-//W3C//DTD SVG 1.1//EN" "http://www.w3.org/Graphics/SVG/1.1/DTD/svg11.dtd" >
<svg xmlns="http://www.w3.org/2000/svg">
<metadata>Generated by IcoMoon</metadata>
<defs>
<font id="dt-icons" horiz-adv-x="512">
<font-face units-per-em="512" ascent="480" descent="-32" />
<missing-glyph horiz-adv-x="512" />
<glyph unicode="&#x20;" horiz-adv-x="256" d="" />
<glyph unicode="&#xe600;" glyph-name="options-widget-areas" d="M170.667 416.529h-67.721c-51.2 0-67.721-17.613-69.871-68.539l-0.41-35.976c0-50.654 18.023-66.151 69.769-66.151l69.325 0.069c51.712-0.069 68.779 15.394 68.779 66.594v35.465c0 49.869-19.183 68.539-69.871 68.539zM200.499 325.291l-0.512 4.335c0.239-10.683 2.117-32.017-5.325-38.434-7.475-9.046-26.727-5.871-41.608-5.871l-37.854-0.546c-14.848 0-23.825 0-32.529 6.929-9.079 8.534-8.534 20.923-8.534 35.738l-0.546 4.847c0 14.848-2.117 26.112 6.417 36.761 11.195 8.534 21.948 6.929 36.795 6.929l40.005-0.546c14.814 0 28.262 3.208 36.796-6.929 10.649-11.196 6.895-28.331 6.895-43.213zM170.667 211.729h-67.721c-51.2 0-67.721-17.613-69.871-68.54l-0.41-36.010c0-50.654 18.023-66.15 69.769-66.15l69.325 0.068c51.712-0.034 68.779 15.428 68.779 66.629v35.464c0 49.869-19.183 68.54-69.871 68.54zM200.499 120.388l-0.512 4.438c0.239-10.683 2.117-32.017-5.325-38.434-7.475-9.079-26.727-5.871-41.608-5.871l-37.854-0.615c-14.848 0-23.825 0-32.529 6.929-9.079 8.534-8.534 20.923-8.534 35.738l-0.546 4.881c0 14.882-2.117 26.146 6.417 36.796 11.195 8.534 21.948 6.929 36.795 6.929l40.005-0.615c14.814 0 28.262 3.209 36.796-6.929 10.649-11.161 6.895-28.296 6.895-43.247zM407.995 211.729h-67.721c-51.2 0-67.687-17.613-69.871-68.54l-0.409-35.976c0-50.62 17.988-66.15 69.769-66.15l69.291 0.068c51.746-0.068 68.813 15.394 68.813 66.594v35.464c0 49.869-19.183 68.539-69.871 68.539zM437.829 120.388l-0.512 4.438c0.205-10.683 2.116-32.017-5.325-38.434-7.475-9.079-26.726-5.871-41.608-5.871l-37.854-0.615c-14.882 0-23.825 0-32.529 6.929-9.079 8.534-8.534 20.923-8.534 35.738l-0.546 4.881c0 14.882-2.116 26.146 6.417 36.796 11.195 8.534 21.947 6.929 36.796 6.929l40.005-0.615c14.814 0 28.262 3.209 36.796-6.929 10.683-11.161 6.895-28.296 6.895-43.247zM407.995 416.529h-67.721c-51.2 0-67.687-17.613-69.871-68.539l-0.409-35.976c0-50.654 17.988-66.151 69.769-66.151l69.291 0.069c51.746-0.069 68.813 15.394 68.813 66.594v35.465c0 49.869-19.183 68.539-69.871 68.539zM437.829 325.222l-0.512 4.403c0.205-10.683 2.116-32.017-5.325-38.434-7.475-9.080-26.726-5.871-41.608-5.871l-37.854-0.58c-14.882 0-23.825 0-32.529 6.929-9.079 8.534-8.534 20.923-8.534 35.737l-0.546 4.847c0 14.882-2.116 26.146 6.417 36.796 11.195 8.534 21.947 6.929 36.796 6.929l40.005-0.58c14.814 0 28.262 3.209 36.796-6.929 10.683-11.195 6.895-28.33 6.895-43.247z" />
<glyph unicode="&#xe603;" glyph-name="options-stripes" d="M403.832 310.033h-295.458c-66.15 0-66.15 0-67.653-64.819l-0.41-33.997c0-62.601 0-62.601 67.55-62.601l296.994 0.068c66.594-0.068 66.594-0.068 66.594 63.010v33.519c0 64.819 0 64.819-67.618 64.819zM46.934 78.916h418.134v-40.55h-418.134v40.55zM46.934 423.117h418.134v-41.779h-418.134v41.779z" />
<glyph unicode="&#xe606;" glyph-name="options-sidebar" d="M409.6 416.529h-306.654c-51.2 0-67.721-17.613-69.871-68.539l-0.41-240.777c0-50.62 18.023-66.15 69.768-66.15l308.258 0.068c51.712-0.068 68.779 15.394 68.779 66.594v240.265c0 49.869-19.217 68.539-69.871 68.539zM82.671 86.869c-9.079 8.534-8.534 20.923-8.534 35.738l-0.546 209.681c0 14.848-2.117 26.112 6.417 36.761 11.195 8.534 21.948 6.929 36.796 6.929l185.071-0.375v-295.288l-186.675-0.409c-14.848 0.034-23.825 0.034-32.529 6.963zM439.433 325.291l-0.512-200.465c0.239-10.683 2.116-32.017-5.325-38.434-7.475-9.079-26.726-5.871-41.608-5.871l-57.071-0.137v295.151l60.791-0.102c14.814 0 28.262 3.208 36.796-6.929 10.683-11.195 6.929-28.33 6.929-43.213z" />
<glyph unicode="&#xe607;" glyph-name="options-share" d="M382.567 162.304c-15.599 0-29.526-6.622-39.526-17.339l-148.275 76.459c0.375 2.936 0.649 5.905 0.649 8.977s-0.273 6.042-0.683 8.977l148.275 76.424c10.001-10.649 23.928-17.305 39.526-17.305 30.378 0 55.023 25.395 55.023 56.763s-24.61 56.73-54.989 56.73-55.057-25.395-55.057-56.73c0-3.072 0.273-6.075 0.717-8.977l-148.31-76.458c-9.967 10.683-23.995 17.339-39.56 17.339-30.379 0-55.023-25.429-55.023-56.763 0-31.369 24.644-56.73 55.023-56.73 15.565 0 29.56 6.587 39.56 17.305l148.31-76.459c-0.478-2.901-0.717-5.905-0.717-8.977 0-31.334 24.712-56.729 55.057-56.729s55.023 25.395 55.023 56.73c0 31.368-24.644 56.764-55.023 56.764z" />
<glyph unicode="&#xe608;" glyph-name="options-image-styling" d="M409.6 416.529h-306.654c-51.2 0-67.721-17.613-69.871-68.539l-0.41-240.777c0-50.62 18.023-66.15 69.768-66.15l308.258 0.068c51.712-0.068 68.779 15.394 68.779 66.594v240.265c0 49.869-19.217 68.539-69.871 68.539zM439.433 325.291l-0.512-200.465c0.239-10.683 2.116-32.017-5.325-38.434-7.475-9.079-26.726-5.871-41.608-5.871l-276.787-0.615c-14.848 0-23.825 0-32.529 6.929-9.079 8.534-8.534 20.923-8.534 35.738l-0.546 209.715c0 14.848-2.117 26.112 6.417 36.762 11.195 8.534 21.948 6.929 36.795 6.929l278.938-0.546c14.814 0 28.262 3.209 36.796-6.929 10.649-11.195 6.895-28.33 6.895-43.213zM187.529 298.599c0-15.666-13.020-28.365-29.082-28.365s-29.082 12.7-29.082 28.365c0 15.666 13.020 28.365 29.082 28.365s29.082-12.7 29.082-28.365zM249.583 203.025l-35.43 43.281-81.954-107.759 268.39 1.399-96.939 152.679z" />
<glyph unicode="&#xe609;" glyph-name="options-header" d="M409.6 416.529h-306.654c-51.2 0-67.721-17.613-69.871-68.539l-0.41-240.777c0-50.654 18.023-66.15 69.768-66.15l308.258 0.068c51.712-0.034 68.779 15.428 68.779 66.629v240.231c0 49.869-19.217 68.54-69.871 68.54zM80.008 369.049c11.195 8.534 21.948 6.929 36.796 6.929l278.938-0.546c14.814 0 28.262 3.208 36.796-6.929 10.649-11.196 6.895-28.331 6.895-43.213l-0.103-44.237h-365.602l-0.136 51.234c0 14.848-2.117 26.112 6.417 36.761zM433.596 86.391c-7.475-9.079-26.726-5.871-41.608-5.871l-276.787-0.58c-14.848 0-23.825 0-32.529 6.929-9.079 8.534-8.534 20.923-8.534 35.738l-0.307 118.443h365.397l-0.307-116.224c0.239-10.683 2.116-32.017-5.325-38.434zM206.917 348.263h198.963v-33.075h-198.963v33.075zM103.458 350.925h61.85v-35.738h-61.85v35.738z" />
<glyph unicode="&#xe60b;" glyph-name="options-footer" d="M409.6 416.529h-306.654c-51.2 0-67.721-17.613-69.871-68.539l-0.41-240.777c0-50.62 18.023-66.15 69.768-66.15l308.258 0.068c51.712-0.068 68.779 15.394 68.779 66.594v240.265c0 49.869-19.217 68.539-69.871 68.539zM174.934 80.077l-59.733-0.137c-14.848 0-23.825 0-32.529 6.929-9.079 8.534-8.534 20.923-8.534 35.738l-0.136 52.327h100.933v-94.856zM307.2 80.35l-102.4-0.205v94.788h102.4v-94.584zM433.596 86.391c-7.475-9.079-26.726-5.871-41.608-5.871l-54.921-0.137v94.55h101.99l-0.137-50.108c0.239-10.683 2.116-32.017-5.325-38.434zM439.433 325.291l-0.307-117.282h-365.226l-0.307 124.28c0 14.848-2.117 26.112 6.417 36.761 11.195 8.534 21.948 6.929 36.795 6.929l278.938-0.546c14.814 0 28.262 3.208 36.796-6.929 10.649-11.195 6.895-28.33 6.895-43.213z" />
<glyph unicode="&#xe60c;" glyph-name="options-typography" d="M479.642 58.709v-17.374h-66.935v17.374h6.11c4.95 0 8.499 5.188 6.827 10.171l-9.796 29.935h-42.906l-11.059 32.086h44.168l-30.959 104.482-23.859-64.103-16.657 39.936 24.2 62.567 34.133-2.116 67.857-202.24c2.116-6.417 7.817-10.683 14.267-10.683h4.608v-0.034zM364.954 72.362h8.295v-31.027h-124.996v31.027h10.855c8.806 0 14.95 9.182 12.151 17.92l-15.702 48.128h-119.808l-15.667-48.128c-2.867-8.772 3.311-17.92 12.151-17.92h10.821v-31.027h-124.962v31.027h8.294c11.367 0 21.573 7.577 25.361 18.841l105.915 315.836h76.015l105.95-315.836c3.789-11.264 13.892-18.841 25.327-18.841zM154.897 200.704h81.51l-40.755 128.546-40.755-128.546z" />
<glyph unicode="&#xe60d;" glyph-name="options-content" d="M409.6 416.529h-306.654c-51.2 0-67.721-17.613-69.871-68.539l-0.41-240.777c0-50.62 18.023-66.15 69.768-66.15l308.258 0.068c51.712-0.068 68.779 15.394 68.779 66.594v240.265c0 49.869-19.217 68.539-69.871 68.539zM439.433 325.291l-0.512-200.465c0.239-10.683 2.116-32.017-5.325-38.434-7.475-9.079-26.726-5.871-41.608-5.871l-276.787-0.615c-14.848 0-23.825 0-32.529 6.929-9.079 8.534-8.534 20.923-8.534 35.738l-0.546 209.715c0 14.848-2.117 26.112 6.417 36.762 11.195 8.534 21.948 6.929 36.795 6.929l278.938-0.546c14.814 0 28.262 3.209 36.796-6.929 10.649-11.195 6.895-28.33 6.895-43.213zM129.605 315.187h253.883v-33.075h-253.883v33.075zM129.605 246.921h253.883v-33.075h-253.883v33.075zM129.605 178.654h187.733v-33.144h-187.733v33.144z" />
<glyph unicode="&#xe60e;" glyph-name="options-buttons" d="M407.995 204.8h-305.050c-35.43 0-67.413-28.433-69.871-62.567l-0.41-32.837c0-30.413 34.85-60.416 69.768-60.416l306.62 0.068c34.611-0.034 68.813 32.632 68.813 60.825v32.358c0 31.539-34.202 62.567-69.871 62.567zM407.995 416.529h-305.050c-33.963 0-66.697-31.846-69.871-68.539l-0.41-35.976c0.717-31.13 37-66.151 69.768-66.151l306.62 0.069c33.962-0.102 69.529 33.553 68.813 66.594v35.465c0.717 35.294-32.7 68.539-69.871 68.539zM437.829 325.222l-0.512 4.403c0.205-10.683 2.116-32.017-5.325-38.434-7.475-9.080-26.726-5.871-41.608-5.871l-275.183-0.546c-14.848 0-23.825 0-32.529 6.929-9.079 8.534-8.534 20.923-8.534 35.738l-0.546 4.813c0 14.882-2.117 26.146 6.417 36.795 11.195 8.534 21.948 6.929 36.795 6.929l277.334-0.58c14.814 0 28.262 3.208 36.796-6.929 10.683-11.195 6.895-28.33 6.895-43.247z" />
<glyph unicode="&#xe610;" glyph-name="options-import-export" d="M315.187 249.344h49.937l-109.159-109.398-109.125 109.398h49.903v192.273h118.443v-192.273zM345.019 406.971v-46.114c42.394-28.979 69.12-76.902 69.12-130.833 0-42.223-16.384-81.989-46.285-111.855-29.866-29.866-69.598-46.353-111.889-46.353-42.257 0-81.988 16.486-111.889 46.353s-46.319 69.632-46.319 111.855c0 53.794 26.658 101.786 69.154 130.833v46.114c-64.648-32.631-108.987-99.635-108.987-176.981 0-109.363 88.678-198.042 198.042-198.042 109.397 0 198.11 88.678 198.11 198.042 0 77.38-44.373 144.35-109.056 176.982z" />
<glyph unicode="&#xe615;" glyph-name="admin-options" d="M85.785 108.212c-15.055-14.965-15.055-39.475 0-54.5 15.055-15.115 39.535-15.115 54.56 0l71.422 71.151-54.53 54.5-71.452-71.151zM470.326 319.497c0 0-19.662-13.159-35.681 2.8-17.494 17.464-12.346 43.45-50.977 72.596-68.2 51.339-170.846 0.783-170.846 0.783 81.599-8.1 116.437-44.594 82.653-78.317l-36.344-36.463 54.62-54.59c0 0 27.762 27.702 35.952 35.982 14.815 14.815 28.936 18.036 40.288 6.714 12.586-12.556 2.048-27.732 2.048-27.732l24.419-24.42 78.317 78.137-24.45 24.51zM198.248 296.673c-8.943 8.943-13.549 21.379-12.586 33.995 1.867 23.877-6.353 48.417-24.6 66.755-23.697 23.697-58.083 30.562-88.043 20.174l54.108-54.048c1.264-21.137-31.375-53.777-52.483-52.513l-54.078 54.048c-10.298-29.779-3.553-64.165 20.204-87.952 16.591-16.56 38.331-24.841 60.1-24.841 6.022 0 24.66 3.703 40.649-12.345l186.113-186.053c15.567-15.688 40.95-15.688 56.637 0 15.717 15.688 15.717 41.101 0 56.788l-186.023 185.992z" />
<glyph unicode="&#xe619;" glyph-name="options-post-types" d="M284.027 438.4h-205v-378.472h40v338.472h205l-40 40zM326.108 324.731v-66.75h66.863v-191.581h-199.39v258.331h132.527zM351.108 364.731h-197.525v-338.331h279.39v256.581l-81.865 81.75z" />
<glyph unicode="&#xe61a;" glyph-name="options-branding" d="M258.322 438.736l65.296-134.701 148.285-20.474-107.93-103.724 26.35-147.355-132.001 70.596-131.999-70.596 26.35 147.355-107.931 103.724 148.284 20.474z" />
<glyph unicode="&#xe61b;" glyph-name="options-woo" d="M171.008 95.392c-24.768 0-45.024-20.256-45.024-44.96 0-24.736 20.256-45.056 45.024-45.056 24.736 0 44.992 20.32 44.992 45.056 0 24.704-20.256 44.96-44.992 44.96v0zM36 455.424v-44.992h44.992l80.992-171.040-31.456-54.016c-2.24-6.72-4.544-15.712-4.544-22.4 0-24.768 20.256-45.056 45.024-45.056h269.984v45.056h-260.992c-2.24 0-4.48 2.176-4.48 4.48v2.208l20.256 38.272h166.528c17.984 0 31.488 8.992 38.24 22.464l80.96 146.24c4.512 4.544 4.512 6.784 4.512 11.264 0 13.536-8.96 22.528-22.528 22.528h-332.96l-20.288 44.992h-74.24zM396.032 95.392c-24.736 0-45.024-20.256-45.024-44.96 0-24.736 20.288-45.056 45.024-45.056 24.704 0 44.96 20.32 44.96 45.056 0 24.704-20.256 44.96-44.96 44.96v0z" />
<glyph unicode="&#xe900;" glyph-name="options-wizard" d="M147.328 283.232l293.696-293.632 55.808 55.808-293.664 293.664-55.84-55.84zM274.56 231.648l-19.808-19.776-71.392 71.36 19.808 19.808 71.392-71.392zM211.232 421.536l-49.152-55.776-66.496 24.576 23.936-66.592-45.856-47.488 62.816-18.56 13.152-67.648 28.832 26.688 18.56-20.736-60.576-55.584-28.576 92.576-92.704 28.16 65.952 71.008-29.344 102.976 101.888-30.144 70.752 66.176 28.544-92.608 92.704-28.16-59.648-63.776-18.56 18.016 28.608 32.32-71.68 14.656-13.152 69.92z" />
<glyph unicode="&#xe901;" glyph-name="options-general" d="M140.69 38.748l-102.29-25.949 25.332 102.889 76.958-76.94zM89.391 141.329l76.939-76.94 307.27 306.689-76.921 76.921-307.288-306.671zM345.325 191.794l-25.64-25.64 12.839-12.839 25.64 25.64 25.64-25.64-38.479-38.479 12.82-12.82 38.479 38.479 25.695-25.114-51.3-51.3-76.74 76.759-25.658-25.623 102.417-102.417 102.563 102.581-102.327 102.327-25.949-25.913zM166.040 269.061l-76.342 76.342 51.281 51.299 24.825-25.404-38.46-38.461 12.821-12.821 38.46 38.479 25.641-25.658-25.641-25.64 12.821-12.821 25.641 25.64 25.967 25.913-102.072 102.072-102.581-102.581 101.963-101.981 25.677 25.623z" />
<glyph unicode="&#xe902;" glyph-name="options-skins" d="M23.373 48.214c106.698-8.84 68.49 104.527 167.22 105.555l42.764-35.688c10.643-128.817-146.923-157.547-209.984-69.865zM350.563 213.728c33.208 52.089 136.010 226.773 136.010 226.773 8.2 14.481-9.983 29.621-22.681 18.921 0 0-152.894-132.927-197.986-175.052-35.63-33.324-35.786-48.541-47.321-103.442l39.081-32.587c51.76 21.285 66.668 24.193 92.896 65.387z" />
<glyph unicode="&#xe903;" glyph-name="options-advanced" d="M362.666 216.64v48.832c-24.96 8.896-40.683 11.37-48.64 30.528-7.957 19.2 1.493 32.256 12.8 56l-34.517 34.538c-23.574-11.2-36.757-20.779-56.022-12.8-19.2 7.978-21.696 23.829-30.528 48.661h-48.853c-8.79-24.704-11.306-40.683-30.528-48.64h-0.022c-19.2-7.978-32.214 1.494-56 12.8l-34.496-34.538c11.242-23.68 20.758-36.779 12.8-56-8-19.221-23.957-21.738-48.661-30.528v-48.832c24.64-8.789 40.682-11.328 48.64-30.528 8.021-19.37-1.728-32.726-12.8-56l34.517-34.538c23.616 11.2 36.779 20.779 56 12.8h0.022c19.2-7.957 21.718-23.851 30.528-48.64h48.832c8.79 24.704 11.306 40.64 30.656 48.683h0.022c19.072 7.936 32.021-1.514 55.872-12.842l34.517 34.538c-11.2 23.616-20.779 36.757-12.822 56 7.978 19.178 24.022 21.738 48.683 30.507zM181.333 180.608c-33.365 0-60.438 27.072-60.438 60.459s27.072 60.459 60.438 60.459 60.438-27.072 60.438-60.459-27.072-60.459-60.438-60.459zM512 90.901v22.976c-11.733 4.181-19.136 5.354-22.89 14.358-3.755 9.046 0.704 15.168 6.016 26.368l-16.256 16.256c-11.094-5.291-17.301-9.771-26.346-6.038s-10.219 11.2-14.378 22.89h-22.954c-4.139-11.627-5.334-19.136-14.378-22.89s-15.168 0.704-26.346 6.038l-16.256-16.256c5.291-11.158 9.771-17.322 6.016-26.368s-11.264-10.219-22.89-14.358v-22.976c11.606-4.118 19.136-5.334 22.89-14.358 3.776-9.11-0.81-15.402-6.016-26.368l16.256-16.256c11.115 5.291 17.322 9.771 26.346 6.038 9.046-3.733 10.219-11.221 14.378-22.89h22.954c4.139 11.627 5.334 19.136 14.421 22.912h0.022c8.981 3.733 15.062-0.726 26.283-6.058l16.256 16.256c-5.269 11.115-9.771 17.322-6.016 26.346s11.286 10.262 22.891 14.378zM426.666 73.962c-15.702 0-28.438 12.736-28.438 28.438s12.736 28.438 28.438 28.438 28.438-12.736 28.438-28.438-12.736-28.438-28.438-28.438z" />
<glyph unicode="&#xe904;" glyph-name="options-archives" d="M100.778 411.752l-7.96 36.248h326.291l-7.961-36.248h-310.37zM432.274 266.666l-28.505-217.6h-296.517l-27.672 217.6h352.694zM473.6 302.934h-435.2l36.902-290.134h360.273l38.025 290.134zM441.958 339.2l6.728 36.266h-385.442l6.728-36.266h371.988z" />
<glyph unicode="&#xe905;" glyph-name="options-wpml" d="M382.055 128.358c51.712 0.051 74.752 48.358 81.945 87.091 30.106 161.715-93.645 284.467-240.768 266.445-79.821-9.779-187.623-98.406-179.328-240.819 8.064-138.291 124.314-232.141 304.051-161.869 54.707 21.401 105.907-82.944 31.488-87.347-14.106 8.269-14.49 25.625-21.351 41.139-1.51 6.272-4.505 11.546-8.55 14.899-3.2 3.763-7.245 6.17-11.904 6.502-11.341 0.743-21.504-11.443-22.502-27.289-0.743-11.111 3.149-20.992 9.447-26.24 1.69-1.92 3.558-3.558 5.658-4.685 15.795-17.715 51.993-22.759 72.243-16.435 66.048 20.634 54.81 112.384-10.24 120.909-37.299 4.889-62.745-3.353-85.351-8.525-152.704-34.816-228.454 87.014-211.2 199.475 11.315 73.625 68.096 127.079 135.475 140.8 74.829 15.283 146.739-8.346 151.475-64 6.502-76.774-82.457-91.929-77.44-168.32 2.739-41.677 38.605-71.783 76.851-71.731z" />
<glyph unicode="&#xe906;" glyph-name="options-forms" d="M256 217.218l-221.582 179.577h443.164l-221.582-179.577zM256 169.63l-221.858 179.798v-285.421h443.719v285.421l-221.858-179.798z" />
<glyph unicode="&#xe907;" glyph-name="options-edit" d="M300.33 335.765l61.034-61.056-230.379-230.358-76.459-15.424 15.445 76.48 230.357 230.358zM300.33 396.118l-269.654-269.654-30.677-152.064 152.042 30.678 269.696 269.654-121.408 121.387zM451.904 304.875l60.096 60.16-121.408 121.365-60.075-60.096 121.387-121.429z" />
<glyph unicode="&#xe908;" glyph-name="admin-options-new" d="M179.2 99.993h-51.2v-74.394h-51.2v74.394h-51.2v76.8h153.6v-76.8zM128 435.2h-51.2v-207.206h51.2v207.206zM336.793 304.793h-153.6v-76.8h51.2v-202.393h51.2v202.394h51.2v76.8zM285.594 435.2h-51.2v-79.206h51.2v79.206zM486.4 176.793h-153.6v-76.8h51.2v-74.394h51.2v74.394h51.2v76.8zM435.2 435.2h-51.2v-207.206h51.2v207.206z" />
<glyph unicode="&#xe909;" glyph-name="options-desktop" d="M64 460.8c-21.197 0-38.4-17.203-38.4-38.4v-281.549c0-21.197 17.203-38.451 38.4-38.451h384.026c21.171 0 38.375 17.255 38.375 38.451v281.549c0 21.197-17.203 38.4-38.375 38.4h-384.026zM435.2 179.2h-358.4v230.4h358.4v-230.4zM321.305 76.8c0-30.695 33.51-69.606 49.894-76.8h-230.4c18.023 6.4 49.894 44.442 49.894 76.8h130.611z" />
<glyph unicode="&#xe90a;" glyph-name="options-tablet" d="M401.075 0c18.816 0 34.125 15.309 34.125 34.125v392.55c0 18.841-15.309 34.125-34.125 34.125h-290.151c-18.841 0-34.125-15.283-34.125-34.125v-392.525c0-18.841 15.283-34.151 34.125-34.151h290.151zM128 102.4v307.2h256v-307.2h-256zM230.4 51.2c0 14.208 11.443 25.6 25.6 25.6s25.6-11.392 25.6-25.6-11.443-25.6-25.6-25.6c-14.131 0-25.6 11.392-25.6 25.6z" />
<glyph unicode="&#xe90b;" glyph-name="options-mobile" d="M349.875 0c18.816 0 34.125 15.309 34.125 34.125v366.951c0 18.841-15.309 34.125-34.125 34.125h-187.75c-18.841 0-34.125-15.283-34.125-34.125v-366.925c0-18.841 15.283-34.151 34.125-34.151h187.75zM179.2 102.4v281.6h153.6v-281.6h-153.6zM230.4 51.2c0 14.183 11.443 25.6 25.6 25.6s25.6-11.418 25.6-25.6-11.443-25.6-25.6-25.6c-14.131 0-25.6 11.418-25.6 25.6z" />
<glyph unicode="&#xe90c;" glyph-name="options-edit-front" d="M158.336 408.141l298.701-298.649-81.459-81.51-298.675 298.752 81.433 81.408zM144.768 421.76l-39.014 39.040-80.153-81.485 37.734-39.040 81.433 81.485zM390.938 16.256l95.462-16.256-17.613 94.106-77.849-77.85zM303.257 317.568l7.475 7.475 13.594-13.568 13.543 13.568-13.543 13.568 13.543 13.568 13.619-13.568 13.594 13.594-13.645 13.568 40.729 40.729 40.73-40.729-88.935-88.909 26.777-26.752 115.661 115.661-94.233 95.027-116.070-116.070 27.161-27.162zM208.205 141.082l-87.578-87.577-40.73 40.73 13.568 13.594 13.568-13.594 13.594 13.594-13.594 13.568 13.594 13.543 13.568-13.543 13.568 13.543-13.568 13.619 13.568 13.568 13.542-13.568 13.568 13.568-13.542 13.517 6.119 6.118-27.161 27.187-114.688-114.714 95.027-94.233 114.329 114.355-26.752 26.726zM398.95 358.963c3.738 3.738 3.738 9.856 0 13.594s-9.83 3.737-13.543 0c-3.789-3.738-3.789-9.831 0-13.594 3.712-3.737 9.805-3.737 13.543 0z" />
<glyph unicode="&#xe90d;" glyph-name="options-edit-back" d="M472.397 81.715l-229.401 229.351c-10.649 10.675-16.179 25.574-15.027 40.601 2.227 28.518-7.552 57.779-29.338 79.616-19.789 19.763-45.619 29.517-71.475 29.517-9.728 0-19.507-1.382-28.877-4.147l60.851-60.851c6.605-30.515-37.606-75.264-68.48-68.48l-60.877 60.851c-2.765-9.472-4.173-19.2-4.173-28.979 0-25.856 9.779-51.661 29.517-71.449 21.785-21.786 51.072-31.591 79.616-29.363 15.027 1.178 29.927-4.352 40.576-15.027l229.35-229.325c9.011-9.011 21.171-14.029 33.843-14.029 26.265 0 47.897 21.248 47.897 47.897 0 12.237-4.711 24.499-14.003 33.817zM438.4 28.8c-10.599 0-19.2 8.601-19.2 19.2 0 10.573 8.601 19.2 19.2 19.2 10.624 0 19.2-8.627 19.2-19.2 0-10.599-8.576-19.2-19.2-19.2zM269.926 338.586l122.24 122.214 94.233-95.027-121.856-121.856-26.803 26.752 95.155 95.104-40.73 40.729-40.73-40.729 13.594-13.568-13.645-13.594-13.543 13.594-13.594-13.594 13.594-13.568-13.594-13.594-13.568 13.594-13.619-13.568-26.906 26.752-0.231 0.359zM242.509 121.856l-121.882-121.856-95.027 94.233 122.215 122.189 0.358-0.231 26.778-26.931-13.568-13.594 13.568-13.594-13.568-13.568-13.568 13.568-13.568-13.568 13.568-13.543-13.568-13.619-13.619 13.671-13.594-13.594 13.594-13.594-13.594-13.568-13.568 13.568-13.568-13.568 40.73-40.729 95.104 95.104 26.778-26.777zM385.408 358.963c-3.789 3.738-3.789 9.856 0 13.594 3.738 3.737 9.831 3.737 13.543 0 3.738-3.738 3.738-9.831 0-13.594-3.738-3.737-9.779-3.737-13.543 0z" />
<glyph unicode="&#xe90e;" glyph-name="options-show-m" d="M408.96 153.6v51.2h-126.695v51.2h126.695v51.2l82.585-76.8zM25.6 435.2v-409.6h204.8v409.6h-204.8zM179.2 76.8h-102.4v307.2h102.4v-307.2z" />
<glyph unicode="&#xe90f;" glyph-name="options-hide-m" d="M276.48 230.4l82.586 76.8v-51.2h126.695v-51.2h-126.695v-51.2l-82.586 76.8zM25.6 435.2v-409.6h204.8v409.6h-204.8zM179.2 76.8h-102.4v307.2h102.4v-307.2z" />
<glyph unicode="&#xe910;" glyph-name="admin-slideshows" d="M102.707 320c0 21.197 17.28 38.4 38.605 38.4 21.299 0 38.502-17.203 38.502-38.4 0-21.222-17.203-38.4-38.502-38.4-21.325 0-38.605 17.178-38.605 38.4zM154.112 25.6c0 14.157 11.494 25.6 25.728 25.6 14.208 0 25.651-11.443 25.651-25.6s-11.443-25.6-25.651-25.6c-14.233 0-25.728 11.443-25.728 25.6zM231.194 25.6c0 14.157 11.52 25.6 25.754 25.6 14.208 0 25.651-11.443 25.651-25.6s-11.443-25.6-25.651-25.6c-14.233 0-25.754 11.443-25.754 25.6zM308.301 25.6c0 14.157 11.495 25.6 25.753 25.6 14.208 0 25.651-11.443 25.651-25.6s-11.443-25.6-25.651-25.6c-14.259 0-25.753 11.443-25.753 25.6zM314.547 306.329l-57.37-94.183-57.344 48.538-95.949-107.29h306.611l-95.949 152.935zM334.003 435.2h152.397v-358.4h-460.8v358.4zM435.021 384h-358.016v-256h358.016v256z" />
<glyph unicode="&#xe912;" glyph-name="admin-portfolio" d="M260.403 225.28c-130.585 0-199.040 24.781-234.803 51.2v-250.88h460.8v250.88c-61.773-42.624-180.889-51.2-225.997-51.2zM307.2 162.611c0-20.864-22.938-37.811-51.2-37.811s-51.2 16.896-51.2 37.811v19.789h102.4v-19.789zM25.6 332.8v0h460.8c0-101.53-460.8-100.761-460.8 0zM198.4 460.8c-21.197 0-38.4-17.203-38.4-38.4v-64h38.4v54.4c0 5.299 4.301 9.6 9.6 9.6h96c5.299 0 9.6-4.301 9.6-9.6v-54.4h38.4v64c0 21.197-17.203 38.4-38.4 38.4h-115.2z" />
<glyph unicode="&#xe913;" glyph-name="admin-testimonials" d="M256 452.454c-128.435 0-243.2-85.325-243.2-201.984 0-41.395 14.976-82.074 41.498-113.561 1.101-36.915-20.736-89.959-40.397-128.538 52.736 9.523 127.693 30.413 161.69 51.226 187.187-45.414 323.61 68.736 323.61 190.899 0 117.273-115.533 201.958-243.2 201.958zM230.4 250.522c0-49.613-28.697-83.047-69.197-92.083l-7.603 18.457c18.714 7.962 30.745 33.69 30.745 52.967h-29.056v84.966h75.111v-64.307zM358.4 250.522c0-49.613-28.723-83.047-69.171-92.083l-7.629 18.457c18.663 7.962 30.72 33.69 30.72 52.967h-29.082v84.966h75.161v-64.307z" />
<glyph unicode="&#xe914;" glyph-name="admin-team" d="M217.856 165.094c46.464 10.701 89.728 20.147 68.787 59.699-63.744 120.422-16.896 184.806 50.406 184.806 68.71 0 114.406-66.867 50.457-184.806-21.606-39.834 23.271-49.178 68.787-59.699 40.243-9.293 42.931-20.454 42.931-54.502l-0.077-59.392h-324.173c0 44.493-3.559 103.194 42.88 113.894zM12.825 51.2h121.625c-0.563 132.608 60.697 109.056 60.697 214.528 0 40.704-26.573 62.797-60.775 62.797-50.509 0-85.657-48.281-37.837-138.624 15.719-29.645-16.717-28.16-51.584-36.199-30.131-7.014-32.154-21.76-32.154-47.309l0.025-55.193z" />
<glyph unicode="&#xe915;" glyph-name="admin-logos" d="M256 429.824c109.952 0 199.424-89.447 199.424-199.424 0-109.952-89.472-199.424-199.424-199.424s-199.424 89.472-199.424 199.424c0 109.952 89.472 199.424 199.424 199.424zM256 480c-137.831 0-249.6-111.769-249.6-249.6s111.769-249.6 249.6-249.6 249.6 111.769 249.6 249.6-111.769 249.6-249.6 249.6zM256 383.181l45.005-92.8 102.195-14.131-74.368-71.475 18.176-101.529-91.008 48.666-90.983-48.666 18.15 101.529-74.368 71.475 102.195 14.131 45.005 92.8z" />
<glyph unicode="&#xe916;" glyph-name="admin-benefits" d="M304 128h28.8v-153.6l-76.007 67.2-77.594-67.2v153.6h28.083c15.949-13.056 26.522-25.6 48.717-25.6 18.714 0 36.070 12.493 48 25.6zM256 384c-42.317 0-76.8-34.457-76.8-76.826 0-42.342 34.483-76.774 76.8-76.774 42.342 0 76.8 34.432 76.8 76.774 0 42.368-34.457 76.826-76.8 76.826zM426.983 275.687c1.229-3.635 1.817-7.347 1.817-11.008 0-11.059-5.504-21.811-15.155-28.518-31.027-21.479-26.957-16.051-38.579-51.047-4.889-14.592-19.046-24.423-34.918-24.423h-0.154c-38.195 0.154-31.488 2.176-62.361-19.481-6.451-4.557-14.029-6.81-21.632-6.81s-15.181 2.253-21.632 6.81c-30.822 21.657-24.192 19.584-62.387 19.481h-0.128c-15.949 0-30.003 9.83-34.867 24.423-11.699 34.995-7.655 29.568-38.553 51.021-9.779 6.733-15.232 17.485-15.232 28.544 0 3.661 0.589 7.373 1.817 10.983 11.93 34.816 11.955 28.109 0 63.053-1.229 3.609-1.817 7.322-1.817 10.982 0 11.111 5.453 21.811 15.207 28.57 30.899 21.427 26.88 15.974 38.579 51.046 4.839 14.592 18.944 24.423 34.867 24.423h0.102c38.144-0.103 31.386-2.329 62.413 19.507 6.451 4.505 14.029 6.758 21.632 6.758s15.181-2.253 21.632-6.784c30.822-21.657 24.166-19.609 62.361-19.507h0.154c15.872 0 30.003-9.83 34.918-24.422 11.623-34.97 7.552-29.568 38.528-51.021 9.702-6.758 15.207-17.459 15.207-28.544 0-3.635-0.589-7.399-1.817-11.008-11.93-34.739-11.955-28.083 0-63.027zM371.2 307.174c0 63.616-51.558 115.226-115.2 115.226-63.59 0-115.2-51.61-115.2-115.226 0-63.565 51.609-115.174 115.2-115.174 63.642 0 115.2 51.61 115.2 115.175z" />
<glyph unicode="&#xe917;" glyph-name="admin-albums" d="M230.4 230.4c0 14.131 11.469 25.6 25.626 25.6s25.575-11.469 25.575-25.6c0-14.157-11.418-25.6-25.575-25.6s-25.625 11.443-25.625 25.6zM345.6 204.595l-38.4-78.822-38.4 40.627-64.231-89.805h205.286l-64.256 128zM486.4 358.4v-358.4h-358.4v102.4h-102.4v358.4h358.4v-102.4h102.4zM128 153.6v204.8h204.8v51.2h-256v-256h51.2zM435.2 307.2h-256v-256h256v256z" />
<glyph unicode="&#xe91a;" glyph-name="the7" d="M256 429.824c109.952 0 199.424-89.447 199.424-199.424 0-109.952-89.472-199.424-199.424-199.424s-199.424 89.472-199.424 199.424c0 109.952 89.472 199.424 199.424 199.424zM256 480c-137.831 0-249.6-111.769-249.6-249.6s111.769-249.6 249.6-249.6 249.6 111.769 249.6 249.6-111.769 249.6-249.6 249.6zM358.4 307.2l-102.4-230.4h-58.88l102.4 230.4h-145.92v51.2h204.8v-51.2z" />
</font>
</defs>
</svg>
